<?xml version="1.0" standalone="no"?>
<!DOCTYPE svg PUBLIC "-//W3C//DTD SVG 1.1//EN" "http://www.w3.org/Graphics/SVG/1.1/DTD/svg11.dtd" >
<svg xmlns="http://www.w3.org/2000/svg">
<metadata>Generated by IcoMoon</metadata>
<defs>
<font id="fontawesome" horiz-adv-x="1024">
<font-face units-per-em="1024" ascent="877.7142857142858" descent="-146.28571428571428" />
<missing-glyph horiz-adv-x="1024" />
<glyph unicode="&#x20;" horiz-adv-x="256" d="" />
<glyph unicode="&#xe900;" glyph-name="bag-custom" horiz-adv-x="971" d="M958.088 619.491c-6.739 8.376-16.393 13.163-26.51 13.163h-187.646v-105.026c0-48.259-39.262-87.521-87.521-87.521s-87.521 39.262-87.521 87.521v105.026h-175.043v-105.026c0-48.259-39.262-87.521-87.521-87.521s-87.521 39.262-87.521 87.521v105.026h-187.637c-10.126 0-19.78-4.787-26.519-13.163-6.748-8.376-9.942-19.544-8.787-30.694l62.972-610.628c1.173-68.844 52.084-124.455 114.504-124.455h616.072c62.411 0 113.323 55.611 114.504 124.464l62.972 610.628c1.147 11.141-2.048 22.309-8.796 30.685zM306.325 492.62c19.307 0 35.009 15.701 35.009 35.009v192.547c0 54.062 54.517 87.521 105.026 87.521h87.521c53.16 0 87.521-34.352 87.521-87.521v-192.547c0-19.307 15.71-35.009 35.009-35.009s35.009 15.701 35.009 35.009v192.547c0 91.285-66.254 157.538-157.538 157.538h-87.521c-96.519 0-175.043-70.674-175.043-157.538v-192.547c0-19.307 15.701-35.009 35.009-35.009z" />
<glyph unicode="&#xf002;" glyph-name="search" horiz-adv-x="951" d="M658.286 402.285c0 141.143-114.857 256-256 256s-256-114.857-256-256 114.857-256 256-256 256 114.857 256 256zM950.857-73.143c0-40-33.143-73.143-73.143-73.143-19.429 0-38.286 8-51.429 21.714l-196 195.429c-66.857-46.286-146.857-70.857-228-70.857-222.286 0-402.286 180-402.286 402.286s180 402.286 402.286 402.286 402.286-180 402.286-402.286c0-81.143-24.571-161.143-70.857-228l196-196c13.143-13.143 21.143-32 21.143-51.429z" />
<glyph unicode="&#xf004;" glyph-name="heart" d="M512-73.143c-9.143 0-18.286 3.429-25.143 10.286l-356.571 344c-4.571 4-130.286 118.857-130.286 256 0 167.429 102.286 267.429 273.143 267.429 100 0 193.714-78.857 238.857-123.429 45.143 44.571 138.857 123.429 238.857 123.429 170.857 0 273.143-100 273.143-267.429 0-137.143-125.714-252-130.857-257.143l-356-342.857c-6.857-6.857-16-10.286-25.143-10.286z" />
<glyph unicode="&#xf007;" glyph-name="user" horiz-adv-x="731" d="M731.429 78.285c0-83.429-54.857-151.429-121.714-151.429h-488c-66.857 0-121.714 68-121.714 151.429 0 150.286 37.143 324 186.857 324 46.286-45.143 109.143-73.143 178.857-73.143s132.571 28 178.857 73.143c149.714 0 186.857-173.714 186.857-324zM585.143 585.143c0-121.143-98.286-219.429-219.429-219.429s-219.429 98.286-219.429 219.429 98.286 219.429 219.429 219.429 219.429-98.286 219.429-219.429z" />
<glyph unicode="&#xf099;" glyph-name="twitter" horiz-adv-x="951" d="M925.714 644.571c-25.143-36.571-56.571-69.143-92.571-95.429 0.571-8 0.571-16 0.571-24 0-244-185.714-525.143-525.143-525.143-104.571 0-201.714 30.286-283.429 82.857 14.857-1.714 29.143-2.286 44.571-2.286 86.286 0 165.714 29.143 229.143 78.857-81.143 1.714-149.143 54.857-172.571 128 11.429-1.714 22.857-2.857 34.857-2.857 16.571 0 33.143 2.286 48.571 6.286-84.571 17.143-148 91.429-148 181.143v2.286c24.571-13.714 53.143-22.286 83.429-23.429-49.714 33.143-82.286 89.714-82.286 153.714 0 34.286 9.143 65.714 25.143 93.143 90.857-112 227.429-185.143 380.571-193.143-2.857 13.714-4.571 28-4.571 42.286 0 101.714 82.286 184.571 184.571 184.571 53.143 0 101.143-22.286 134.857-58.286 41.714 8 81.714 23.429 117.143 44.571-13.714-42.857-42.857-78.857-81.143-101.714 37.143 4 73.143 14.286 106.286 28.571z" />
<glyph unicode="&#xf09a;" glyph-name="facebook, facebook-f" horiz-adv-x="602" d="M548 870.857v-150.857h-89.714c-70.286 0-83.429-33.714-83.429-82.286v-108h167.429l-22.286-169.143h-145.143v-433.714h-174.857v433.714h-145.714v169.143h145.714v124.571c0 144.571 88.571 223.429 217.714 223.429 61.714 0 114.857-4.571 130.286-6.857z" />
<glyph unicode="&#xf09b;" glyph-name="github" horiz-adv-x="878" d="M438.857 804.571c242.286 0 438.857-196.571 438.857-438.857 0-193.714-125.714-358.286-300-416.571-22.286-4-30.286 9.714-30.286 21.143 0 14.286 0.571 61.714 0.571 120.571 0 41.143-13.714 67.429-29.714 81.143 97.714 10.857 200.571 48 200.571 216.571 0 48-17.143 86.857-45.143 117.714 4.571 11.429 19.429 56-4.571 116.571-36.571 11.429-120.571-45.143-120.571-45.143-34.857 9.714-72.571 14.857-109.714 14.857s-74.857-5.143-109.714-14.857c0 0-84 56.571-120.571 45.143-24-60.571-9.143-105.143-4.571-116.571-28-30.857-45.143-69.714-45.143-117.714 0-168 102.286-205.714 200-216.571-12.571-11.429-24-30.857-28-58.857-25.143-11.429-89.143-30.857-127.429 36.571-24 41.714-67.429 45.143-67.429 45.143-42.857 0.571-2.857-26.857-2.857-26.857 28.571-13.143 48.571-64 48.571-64 25.714-78.286 148-52 148-52 0-36.571 0.571-70.857 0.571-81.714 0-11.429-8-25.143-30.286-21.143-174.286 58.286-300 222.857-300 416.571 0 242.286 196.571 438.857 438.857 438.857zM166.286 174.285c1.143 2.286-0.571 5.143-4 6.857-3.429 1.143-6.286 0.571-7.429-1.143-1.143-2.286 0.571-5.143 4-6.857 2.857-1.714 6.286-1.143 7.429 1.143zM184 154.857c2.286 1.714 1.714 5.714-1.143 9.143-2.857 2.857-6.857 4-9.143 1.714-2.286-1.714-1.714-5.714 1.143-9.143 2.857-2.857 6.857-4 9.143-1.714zM201.143 129.143c2.857 2.286 2.857 6.857 0 10.857-2.286 4-6.857 5.714-9.714 3.429-2.857-1.714-2.857-6.286 0-10.286s7.429-5.714 9.714-4zM225.143 105.143c2.286 2.286 1.143 7.429-2.286 10.857-4 4-9.143 4.571-11.429 1.714-2.857-2.286-1.714-7.429 2.286-10.857 4-4 9.143-4.571 11.429-1.714zM257.714 90.857c1.143 3.429-2.286 7.429-7.429 9.143-4.571 1.143-9.714-0.571-10.857-4s2.286-7.429 7.429-8.571c4.571-1.714 9.714 0 10.857 3.429zM293.714 88c0 4-4.571 6.857-9.714 6.286-5.143 0-9.143-2.857-9.143-6.286 0-4 4-6.857 9.714-6.286 5.143 0 9.143 2.857 9.143 6.286zM326.857 93.714c-0.571 3.429-5.143 5.714-10.286 5.143-5.143-1.143-8.571-4.571-8-8.571 0.571-3.429 5.143-5.714 10.286-4.571s8.571 4.571 8 8z" />
<glyph unicode="&#xf09e;" glyph-name="feed, rss" horiz-adv-x="805" d="M219.429 109.714c0-60.571-49.143-109.714-109.714-109.714s-109.714 49.143-109.714 109.714 49.143 109.714 109.714 109.714 109.714-49.143 109.714-109.714zM512 39.428c0.571-10.286-2.857-20-9.714-27.429-6.857-8-16.571-12-26.857-12h-77.143c-18.857 0-34.286 14.286-36 33.143-16.571 174.286-154.857 312.571-329.143 329.143-18.857 1.714-33.143 17.143-33.143 36v77.143c0 10.286 4 20 12 26.857 6.286 6.286 15.429 9.714 24.571 9.714h2.857c121.714-9.714 236.571-62.857 322.857-149.714 86.857-86.286 140-201.143 149.714-322.857zM804.571 38.285c0.571-9.714-2.857-19.429-10.286-26.857-6.857-7.429-16-11.429-26.286-11.429h-81.714c-19.429 0-35.429 14.857-36.571 34.286-18.857 332-283.429 596.571-615.429 616-19.429 1.143-34.286 17.143-34.286 36v81.714c0 10.286 4 19.429 11.429 26.286 6.857 6.857 16 10.286 25.143 10.286h1.714c200-10.286 388-94.286 529.714-236.571 142.286-141.714 226.286-329.714 236.571-529.714z" />
<glyph unicode="&#xf0ac;" glyph-name="globe" horiz-adv-x="878" d="M438.857 804.571c242.286 0 438.857-196.571 438.857-438.857s-196.571-438.857-438.857-438.857-438.857 196.571-438.857 438.857 196.571 438.857 438.857 438.857zM595.429 506.857c-4.571-3.429-7.429-9.714-13.143-10.857 2.857 0.571 5.714 10.857 7.429 13.143 3.429 4 8 6.286 12.571 8.571 9.714 4 19.429 5.143 29.714 6.857 9.714 2.286 21.714 2.286 29.143-6.286-1.714 1.714 12 13.714 13.714 14.286 5.143 2.857 13.714 1.714 17.143 6.857 1.143 1.714 1.143 12.571 1.143 12.571-9.714-1.143-13.143 8-13.714 16 0-0.571-1.143-2.286-3.429-4.571 0.571 8.571-10.286 2.286-14.286 3.429-13.143 3.429-11.429 12.571-15.429 22.286-2.286 5.143-8.571 6.857-10.857 12-2.286 3.429-3.429 10.857-8.571 11.429-3.429 0.571-9.714-12-10.857-11.429-5.143 2.857-7.429-1.143-11.429-3.429-3.429-2.286-6.286-1.143-9.714-2.857 10.286 3.429-4.571 9.143-9.714 8 8 2.286 4 10.857-0.571 14.857h2.857c-1.143 5.143-17.143 9.714-22.286 13.143s-32.571 9.143-38.286 5.714c-6.857-4 1.714-15.429 1.714-21.143 0.571-6.857-6.857-8.571-6.857-14.286 0-9.714 18.286-8 13.714-21.143-2.857-8-13.714-9.714-18.286-16-4.571-5.714 0.571-16 5.143-20 4.571-3.429-8-9.143-9.714-10.286-9.714-4.571-17.143 9.714-19.429 18.286-1.714 6.286-2.286 13.714-9.143 17.143-3.429 1.143-14.286 2.857-16.571-0.571-3.429 8.571-15.429 12-23.429 14.857-11.429 4-21.143 4-33.143 2.286 4 0.571-1.143 18.286-10.857 15.429 2.857 5.714 1.714 12 2.857 17.714 1.143 4.571 3.429 9.143 6.857 13.143 1.143 2.286 13.714 15.429 9.714 16 9.714-1.143 20.571-1.714 28.571 6.286 5.143 5.143 7.429 13.714 12.571 19.429 7.429 8.571 16.571-2.286 24.571-2.857 11.429-0.571 10.857 12 4.571 17.714 7.429-0.571 1.143 13.143-2.857 14.857-5.143 1.714-24.571-3.429-14.286-7.429-2.286 1.143-16-27.429-24-13.143-2.286 2.857-3.429 14.857-8.571 15.429-4.571 0-7.429-5.143-9.143-8.571 2.857 7.429-16 12.571-20 13.143 8.571 5.714 1.714 12-4.571 15.429-4.571 2.857-18.857 5.143-22.857 0.571-10.857-13.143 11.429-14.857 17.143-18.286 1.714-1.143 8.571-5.143 4.571-8-3.429-1.714-13.714-4.571-14.857-6.857-3.429-5.143 4-10.857-1.143-16-5.143 5.143-5.143 13.714-9.143 19.429 5.143-6.286-20.571-2.857-20-2.857-8.571 0-22.286-5.714-28.571 2.857-1.143 2.286-1.143 15.429 2.286 12.571-5.143 4-8.571 8-12 10.286-18.857-6.286-36.571-14.286-53.714-23.429 2.286-0.571 4-0.571 6.857 0.571 4.571 1.714 8.571 4.571 13.143 6.857 5.714 2.286 17.714 9.143 24 4 0.571 1.143 2.286 2.286 2.857 2.857 4-4.571 8-9.143 11.429-14.286-4.571 2.286-12 1.143-17.143 0.571-4-1.143-10.857-2.286-12.571-6.857 1.714-2.857 4-7.429 2.857-10.286-7.429 5.143-13.143 13.714-23.429 14.857-4.571 0-9.143 0-12.571-0.571-54.857-30.286-101.143-74.286-134.286-126.857 2.286-2.286 4.571-4 6.857-4.571 5.714-1.714 0-18.286 10.857-9.714 3.429-2.857 4-6.857 1.714-10.857 0.571 0.571 23.429-14.286 25.143-15.429 4-3.429 10.286-7.429 12-12 1.143-4-2.286-8.571-5.714-10.286-0.571 1.143-9.143 9.714-10.286 7.429-1.714-2.857 0-18.286 6.286-17.714-9.143-0.571-5.143-36-7.429-42.857 0-0.571 1.143-0.571 1.143-0.571-1.714-6.857 4-33.714 15.429-30.857-7.429-1.714 13.143-28 16-29.714 7.429-5.143 16-8.571 21.143-16 5.714-8 5.714-20 13.714-26.286-2.286-6.857 12-14.857 11.429-24.571-1.143-0.571-1.714-0.571-2.857-1.143 2.857-8 13.714-8 17.714-15.429 2.286-4.571 0-15.429 7.429-13.143 1.143 12.571-7.429 25.143-13.714 35.429-3.429 5.714-6.857 10.857-9.714 16.571-2.857 5.143-3.429 11.429-5.714 17.143 2.286-0.571 14.857-5.143 13.714-6.857-4.571-11.429 18.286-31.429 24.571-38.857 1.714-1.714 14.857-18.857 8-18.857 7.429 0 17.714-11.429 21.143-17.143 5.143-8.571 4-19.429 7.429-28.571 3.429-11.429 19.429-16.571 28.571-21.714 8-4 14.857-9.714 22.857-12.571 12-4.571 14.857-0.571 25.143 1.143 14.857 2.286 16.571-14.286 28.571-20.571 7.429-4 23.429-9.714 31.429-6.286-3.429-1.143 12-24.571 13.143-26.286 5.143-6.857 14.857-10.286 20.571-17.143 1.714 1.143 3.429 2.857 4 5.143-2.286-6.286 8.571-18.286 14.286-17.143 6.286 1.143 8 13.714 8 18.286-11.429-5.714-21.714-1.143-28 10.286-1.143 2.857-10.286 18.857-2.286 18.857 10.857 0 3.429 8.571 2.286 16.571s-9.143 13.143-13.143 20c-3.429-6.857-14.857-5.143-18.286 0.571 0-1.714-1.714-4.571-1.714-6.857-2.857 0-5.714-0.571-8.571 0.571 1.143 6.857 1.714 15.429 3.429 22.857 2.857 10.286 21.714 30.286-2.857 29.143-8.571-0.571-12-4-14.857-11.429-2.857-6.857-1.714-13.143-9.714-16.571-5.143-2.286-22.286-1.143-27.429 1.714-10.857 6.286-18.286 26.286-18.286 37.714-0.571 15.429 7.429 29.143 0 43.429 3.429 2.857 6.857 8.571 10.857 11.429 3.429 2.286 7.429-1.714 9.143 5.143-1.714 1.143-4 3.429-4.571 3.429 8.571-4 24.571 5.714 32 0 4.571-3.429 9.714-4.571 12.571 1.143 0.571 1.714-4 8.571-1.714 13.143 1.714-9.714 8-11.429 16.571-5.143 3.429-3.429 12.571-2.286 18.857-5.714 6.286-4 7.429-10.286 14.857-1.714 4.571-6.857 5.143-6.857 6.857-13.714 1.714-6.286 5.143-22.286 10.857-25.143 12-7.429 9.143 12.571 8 19.429-0.571 0.571-0.571 19.429-1.143 19.429-18.286 4-11.429 18.286-1.143 28 1.714 1.143 14.857 5.714 20.571 10.286 5.143 4.571 11.429 12.571 8.571 20 2.857 0 5.143 2.286 6.286 5.143-1.714 0.571-8.571 6.286-9.714 5.714 4 2.286 3.429 5.714 1.143 9.143 5.714 3.429 2.857 9.714 8.571 12 6.286-8.571 18.857 1.143 12.571 8 5.714 8 18.857 4 22.286 11.429 8.571-2.286 2.286 8.571 6.857 14.857 4 5.143 10.857 5.143 16 8 0-0.571 14.286 8 9.714 8.571 9.714-1.143 29.143 9.143 14.286 17.714 2.286 5.143-5.143 7.429-10.286 8.571 4 1.143 9.143-1.143 12.571 1.143 7.429 5.143 2.286 7.429-4 9.143-8 2.286-18.286-2.857-24.571-6.857zM502.286 5.714c78.286 13.714 148 52.571 200.571 108-3.429 3.429-9.714 2.286-14.286 4.571-4.571 1.714-8 3.429-13.714 4.571 1.143 11.429-11.429 15.429-19.429 21.143-7.429 5.714-12 12-22.857 9.714-1.143-0.571-12.571-4.571-10.286-6.857-7.429 6.286-10.857 9.714-20.571 12.571-9.143 2.857-15.429 14.286-24.571 4-4.571-4.571-2.286-11.429-4.571-16-7.429 6.286 6.857 13.714 1.143 20.571-6.857 8-18.857-5.143-24.571-8.571-3.429-2.857-7.429-4-9.714-7.429-2.857-4-4-9.143-6.286-13.143-1.714 4.571-11.429 3.429-12 6.857 2.286-13.714 2.286-28 5.143-41.714 1.714-8 0-21.143-6.857-27.429s-15.429-13.143-16.571-22.857c-1.143-6.857 0.571-13.143 6.857-14.857 0.571-8.571-9.143-14.857-8.571-24 0-0.571 0.571-6.286 1.143-9.143z" />
<glyph unicode="&#xf0c1;" glyph-name="chain, link" horiz-adv-x="951" d="M832 182.857c0 14.857-5.714 28.571-16 38.857l-118.857 118.857c-10.286 10.286-24.571 16-38.857 16-16.571 0-29.714-6.286-41.143-18.286 18.857-18.857 41.143-34.857 41.143-64 0-30.286-24.571-54.857-54.857-54.857-29.143 0-45.143 22.286-64 41.143-12-11.429-18.857-24.571-18.857-41.714 0-14.286 5.714-28.571 16-38.857l117.714-118.286c10.286-10.286 24.571-15.429 38.857-15.429s28.571 5.143 38.857 14.857l84 83.429c10.286 10.286 16 24 16 38.286zM430.286 585.714c0 14.286-5.714 28.571-16 38.857l-117.714 118.286c-10.286 10.286-24.571 16-38.857 16s-28.571-5.714-38.857-15.429l-84-83.429c-10.286-10.286-16-24-16-38.286 0-14.857 5.714-28.571 16-38.857l118.857-118.857c10.286-10.286 24.571-15.429 38.857-15.429 16.571 0 29.714 5.714 41.143 17.714-18.857 18.857-41.143 34.857-41.143 64 0 30.286 24.571 54.857 54.857 54.857 29.143 0 45.143-22.286 64-41.143 12 11.429 18.857 24.571 18.857 41.714zM941.714 182.857c0-43.429-17.714-85.714-48.571-116l-84-83.429c-30.857-30.857-72.571-47.429-116-47.429-44 0-85.714 17.143-116.571 48.571l-117.714 118.286c-30.857 30.857-47.429 72.571-47.429 116 0 45.143 18.286 88 50.286 119.429l-50.286 50.286c-31.429-32-73.714-50.286-118.857-50.286-43.429 0-85.714 17.143-116.571 48l-118.857 118.857c-31.429 31.429-48 72.571-48 116.571 0 43.429 17.714 85.714 48.571 116l84 83.429c30.857 30.857 72.571 47.429 116 47.429 44 0 85.714-17.143 116.571-48.571l117.714-118.286c30.857-30.857 47.429-72.571 47.429-116 0-45.143-18.286-88-50.286-119.429l50.286-50.286c31.429 32 73.714 50.286 118.857 50.286 43.429 0 85.714-17.143 116.571-48l118.857-118.857c31.429-31.429 48-72.571 48-116.571z" />
<glyph unicode="&#xf0d2;" glyph-name="pinterest" horiz-adv-x="878" d="M877.714 365.714c0-242.286-196.571-438.857-438.857-438.857-43.429 0-84.571 6.286-124.571 18.286 16.571 26.286 35.429 60 44.571 93.714 0 0 5.143 19.429 30.857 120.571 14.857-29.143 59.429-54.857 106.857-54.857 141.143 0 237.143 128.571 237.143 301.143 0 129.714-110.286 251.429-278.286 251.429-208 0-313.143-149.714-313.143-274.286 0-75.429 28.571-142.857 89.714-168 9.714-4 18.857 0 21.714 11.429 2.286 7.429 6.857 26.857 9.143 34.857 2.857 11.429 1.714 14.857-6.286 24.571-17.714 21.143-29.143 48-29.143 86.286 0 110.857 82.857 210.286 216 210.286 117.714 0 182.857-72 182.857-168.571 0-126.286-56-233.143-139.429-233.143-45.714 0-80 37.714-69.143 84.571 13.143 55.429 38.857 115.429 38.857 155.429 0 36-19.429 66.286-59.429 66.286-46.857 0-84.571-48.571-84.571-113.714 0 0 0-41.714 14.286-69.714-48-203.429-56.571-238.857-56.571-238.857-8-33.143-8.571-70.286-7.429-101.143-154.857 68-262.857 222.286-262.857 402.286 0 242.286 196.571 438.857 438.857 438.857s438.857-196.571 438.857-438.857z" />
<glyph unicode="&#xf0d5;" glyph-name="google-plus" horiz-adv-x="1317" d="M821.143 356c0-239.429-160.571-409.143-402.286-409.143-231.429 0-418.857 187.429-418.857 418.857s187.429 418.857 418.857 418.857c113.143 0 207.429-41.143 280.571-109.714l-113.714-109.143c-30.857 29.714-85.143 64.571-166.857 64.571-142.857 0-259.429-118.286-259.429-264.571s116.571-264.571 259.429-264.571c165.714 0 228 119.429 237.714 180.571h-237.714v144h395.429c4-21.143 6.857-42.286 6.857-69.714zM1316.571 425.714v-120h-119.429v-119.429h-120v119.429h-119.429v120h119.429v119.429h120v-119.429h119.429z" />
<glyph unicode="&#xf0e0;" glyph-name="envelope" d="M1024 472v-453.714c0-50.286-41.143-91.429-91.429-91.429h-841.143c-50.286 0-91.429 41.143-91.429 91.429v453.714c17.143-18.857 36.571-35.429 57.714-49.714 94.857-64.571 190.857-129.143 284-197.143 48-35.429 107.429-78.857 169.714-78.857h1.143c62.286 0 121.714 43.429 169.714 78.857 93.143 67.429 189.143 132.571 284.571 197.143 20.571 14.286 40 30.857 57.143 49.714zM1024 640c0-64-47.429-121.714-97.714-156.571-89.143-61.714-178.857-123.429-267.429-185.714-37.143-25.714-100-78.286-146.286-78.286h-1.143c-46.286 0-109.143 52.571-146.286 78.286-88.571 62.286-178.286 124-266.857 185.714-40.571 27.429-98.286 92-98.286 144 0 56 30.286 104 91.429 104h841.143c49.714 0 91.429-41.143 91.429-91.429z" />
<glyph unicode="&#xf0e1;" glyph-name="linkedin" horiz-adv-x="878" d="M199.429 520.571v-566.286h-188.571v566.286h188.571zM211.429 695.428c0.571-54.286-40.571-97.714-106.286-97.714v0h-1.143c-63.429 0-104 43.429-104 97.714 0 55.429 42.286 97.714 106.286 97.714 64.571 0 104.571-42.286 105.143-97.714zM877.714 278.857v-324.571h-188v302.857c0 76-27.429 128-95.429 128-52 0-82.857-34.857-96.571-68.571-4.571-12.571-6.286-29.143-6.286-46.286v-316h-188c2.286 513.143 0 566.286 0 566.286h188v-82.286h-1.143c24.571 38.857 69.143 95.429 170.857 95.429 124 0 216.571-81.143 216.571-254.857z" />
<glyph unicode="&#xf100;" glyph-name="angle-double-left" horiz-adv-x="603" d="M358.286 91.428c0-4.571-2.286-9.714-5.714-13.143l-28.571-28.571c-3.429-3.429-8.571-5.714-13.143-5.714s-9.714 2.286-13.143 5.714l-266.286 266.286c-3.429 3.429-5.714 8.571-5.714 13.143s2.286 9.714 5.714 13.143l266.286 266.286c3.429 3.429 8.571 5.714 13.143 5.714s9.714-2.286 13.143-5.714l28.571-28.571c3.429-3.429 5.714-8.571 5.714-13.143s-2.286-9.714-5.714-13.143l-224.571-224.571 224.571-224.571c3.429-3.429 5.714-8.571 5.714-13.143zM577.714 91.428c0-4.571-2.286-9.714-5.714-13.143l-28.571-28.571c-3.429-3.429-8.571-5.714-13.143-5.714s-9.714 2.286-13.143 5.714l-266.286 266.286c-3.429 3.429-5.714 8.571-5.714 13.143s2.286 9.714 5.714 13.143l266.286 266.286c3.429 3.429 8.571 5.714 13.143 5.714s9.714-2.286 13.143-5.714l28.571-28.571c3.429-3.429 5.714-8.571 5.714-13.143s-2.286-9.714-5.714-13.143l-224.571-224.571 224.571-224.571c3.429-3.429 5.714-8.571 5.714-13.143z" />
<glyph unicode="&#xf101;" glyph-name="angle-double-right" horiz-adv-x="567" d="M340 329.143c0-4.571-2.286-9.714-5.714-13.143l-266.286-266.286c-3.429-3.429-8.571-5.714-13.143-5.714s-9.714 2.286-13.143 5.714l-28.571 28.571c-3.429 3.429-5.714 8.571-5.714 13.143s2.286 9.714 5.714 13.143l224.571 224.571-224.571 224.571c-3.429 3.429-5.714 8.571-5.714 13.143s2.286 9.714 5.714 13.143l28.571 28.571c3.429 3.429 8.571 5.714 13.143 5.714s9.714-2.286 13.143-5.714l266.286-266.286c3.429-3.429 5.714-8.571 5.714-13.143zM559.429 329.143c0-4.571-2.286-9.714-5.714-13.143l-266.286-266.286c-3.429-3.429-8.571-5.714-13.143-5.714s-9.714 2.286-13.143 5.714l-28.571 28.571c-3.429 3.429-5.714 8.571-5.714 13.143s2.286 9.714 5.714 13.143l224.571 224.571-224.571 224.571c-3.429 3.429-5.714 8.571-5.714 13.143s2.286 9.714 5.714 13.143l28.571 28.571c3.429 3.429 8.571 5.714 13.143 5.714s9.714-2.286 13.143-5.714l266.286-266.286c3.429-3.429 5.714-8.571 5.714-13.143z" />
<glyph unicode="&#xf102;" glyph-name="angle-double-up" horiz-adv-x="658" d="M614.286 128c0-4.571-2.286-9.714-5.714-13.143l-28.571-28.571c-3.429-3.429-8-5.714-13.143-5.714-4.571 0-9.714 2.286-13.143 5.714l-224.571 224.571-224.571-224.571c-3.429-3.429-8.571-5.714-13.143-5.714s-9.714 2.286-13.143 5.714l-28.571 28.571c-3.429 3.429-5.714 8.571-5.714 13.143s2.286 9.714 5.714 13.143l266.286 266.286c3.429 3.429 8.571 5.714 13.143 5.714s9.714-2.286 13.143-5.714l266.286-266.286c3.429-3.429 5.714-8.571 5.714-13.143zM614.286 347.428c0-4.571-2.286-9.714-5.714-13.143l-28.571-28.571c-3.429-3.429-8-5.714-13.143-5.714-4.571 0-9.714 2.286-13.143 5.714l-224.571 224.571-224.571-224.571c-3.429-3.429-8.571-5.714-13.143-5.714s-9.714 2.286-13.143 5.714l-28.571 28.571c-3.429 3.429-5.714 8.571-5.714 13.143s2.286 9.714 5.714 13.143l266.286 266.286c3.429 3.429 8.571 5.714 13.143 5.714s9.714-2.286 13.143-5.714l266.286-266.286c3.429-3.429 5.714-8.571 5.714-13.143z" />
<glyph unicode="&#xf103;" glyph-name="angle-double-down" horiz-adv-x="658" d="M614.286 384c0-4.571-2.286-9.714-5.714-13.143l-266.286-266.286c-3.429-3.429-8.571-5.714-13.143-5.714s-9.714 2.286-13.143 5.714l-266.286 266.286c-3.429 3.429-5.714 8.571-5.714 13.143s2.286 9.714 5.714 13.143l28.571 28.571c3.429 3.429 8 5.714 13.143 5.714 4.571 0 9.714-2.286 13.143-5.714l224.571-224.571 224.571 224.571c3.429 3.429 8.571 5.714 13.143 5.714s9.714-2.286 13.143-5.714l28.571-28.571c3.429-3.429 5.714-8.571 5.714-13.143zM614.286 603.428c0-4.571-2.286-9.714-5.714-13.143l-266.286-266.286c-3.429-3.429-8.571-5.714-13.143-5.714s-9.714 2.286-13.143 5.714l-266.286 266.286c-3.429 3.429-5.714 8.571-5.714 13.143s2.286 9.714 5.714 13.143l28.571 28.571c3.429 3.429 8 5.714 13.143 5.714 4.571 0 9.714-2.286 13.143-5.714l224.571-224.571 224.571 224.571c3.429 3.429 8.571 5.714 13.143 5.714s9.714-2.286 13.143-5.714l28.571-28.571c3.429-3.429 5.714-8.571 5.714-13.143z" />
<glyph unicode="&#xf104;" glyph-name="angle-left" horiz-adv-x="384" d="M358.286 566.857c0-4.571-2.286-9.714-5.714-13.143l-224.571-224.571 224.571-224.571c3.429-3.429 5.714-8.571 5.714-13.143s-2.286-9.714-5.714-13.143l-28.571-28.571c-3.429-3.429-8.571-5.714-13.143-5.714s-9.714 2.286-13.143 5.714l-266.286 266.286c-3.429 3.429-5.714 8.571-5.714 13.143s2.286 9.714 5.714 13.143l266.286 266.286c3.429 3.429 8.571 5.714 13.143 5.714s9.714-2.286 13.143-5.714l28.571-28.571c3.429-3.429 5.714-8 5.714-13.143z" />
<glyph unicode="&#xf105;" glyph-name="angle-right" horiz-adv-x="347" d="M340 329.143c0-4.571-2.286-9.714-5.714-13.143l-266.286-266.286c-3.429-3.429-8.571-5.714-13.143-5.714s-9.714 2.286-13.143 5.714l-28.571 28.571c-3.429 3.429-5.714 8-5.714 13.143 0 4.571 2.286 9.714 5.714 13.143l224.571 224.571-224.571 224.571c-3.429 3.429-5.714 8.571-5.714 13.143s2.286 9.714 5.714 13.143l28.571 28.571c3.429 3.429 8.571 5.714 13.143 5.714s9.714-2.286 13.143-5.714l266.286-266.286c3.429-3.429 5.714-8.571 5.714-13.143z" />
<glyph unicode="&#xf106;" glyph-name="angle-up" horiz-adv-x="658" d="M614.286 201.143c0-4.571-2.286-9.714-5.714-13.143l-28.571-28.571c-3.429-3.429-8-5.714-13.143-5.714-4.571 0-9.714 2.286-13.143 5.714l-224.571 224.571-224.571-224.571c-3.429-3.429-8.571-5.714-13.143-5.714s-9.714 2.286-13.143 5.714l-28.571 28.571c-3.429 3.429-5.714 8.571-5.714 13.143s2.286 9.714 5.714 13.143l266.286 266.286c3.429 3.429 8.571 5.714 13.143 5.714s9.714-2.286 13.143-5.714l266.286-266.286c3.429-3.429 5.714-8.571 5.714-13.143z" />
<glyph unicode="&#xf107;" glyph-name="angle-down" horiz-adv-x="658" d="M614.286 457.143c0-4.571-2.286-9.714-5.714-13.143l-266.286-266.286c-3.429-3.429-8.571-5.714-13.143-5.714s-9.714 2.286-13.143 5.714l-266.286 266.286c-3.429 3.429-5.714 8.571-5.714 13.143s2.286 9.714 5.714 13.143l28.571 28.571c3.429 3.429 8 5.714 13.143 5.714 4.571 0 9.714-2.286 13.143-5.714l224.571-224.571 224.571 224.571c3.429 3.429 8.571 5.714 13.143 5.714s9.714-2.286 13.143-5.714l28.571-28.571c3.429-3.429 5.714-8.571 5.714-13.143z" />
<glyph unicode="&#xf112;" glyph-name="mail-reply, reply" d="M1024 237.714c0-80-40-184.571-72.571-257.714-6.286-13.143-12.571-31.429-21.143-43.429-4-5.714-8-9.714-16-9.714-11.429 0-18.286 9.143-18.286 20 0 9.143 2.286 19.429 2.857 28.571 1.714 23.429 2.857 46.857 2.857 70.286 0 272.571-161.714 320-408 320h-128v-146.286c0-20-16.571-36.571-36.571-36.571-9.714 0-18.857 4-25.714 10.857l-292.571 292.571c-6.857 6.857-10.857 16-10.857 25.714s4 18.857 10.857 25.714l292.571 292.571c6.857 6.857 16 10.857 25.714 10.857 20 0 36.571-16.571 36.571-36.571v-146.286h128c187.429 0 420.571-33.143 500-230.286 24-60.571 30.286-126.286 30.286-190.286z" />
<glyph unicode="&#xf168;" glyph-name="xing" horiz-adv-x="805" d="M341.143 496.571c0 0-5.714-9.714-146.857-260.571-7.429-12.571-17.143-26.286-37.143-26.286h-136.571c-8 0-14.286 4-17.714 9.714s-4 13.143 0 20.571l144.571 256c0.571 0 0.571 0 0 0.571l-92 159.429c-4 7.429-4.571 15.429-0.571 21.143 3.429 5.714 10.286 8.571 18.286 8.571h136.571c20.571 0 30.857-13.714 37.714-25.714 93.143-162.857 93.714-163.429 93.714-163.429zM801.714 863.428c4-5.714 4-13.714 0-21.143l-301.714-533.714c-0.571 0-0.571-0.571 0-0.571l192-351.429c4-7.429 4-15.429 0.571-21.143-4-5.714-10.286-8.571-18.286-8.571h-136.571c-20.571 0-31.429 13.714-37.714 25.714-193.714 354.857-193.714 355.429-193.714 355.429s9.714 17.143 303.429 538.286c7.429 13.143 16 25.714 36.571 25.714h137.714c8 0 14.286-2.857 17.714-8.571z" />
<glyph unicode="&#xf16a;" glyph-name="youtube-play" d="M406.286 233.143l276.571 142.857-276.571 144.571v-287.429zM512 725.714c215.429 0 358.286-10.286 358.286-10.286 20-2.286 64-2.286 102.857-43.429 0 0 31.429-30.857 40.571-101.714 10.857-82.857 10.286-165.714 10.286-165.714v-77.714s0.571-82.857-10.286-165.714c-9.143-70.286-40.571-101.714-40.571-101.714-38.857-40.571-82.857-40.571-102.857-42.857 0 0-142.857-10.857-358.286-10.857v0c-266.286 2.286-348 10.286-348 10.286-22.857 4-74.286 2.857-113.143 43.429 0 0-31.429 31.429-40.571 101.714-10.857 82.857-10.286 165.714-10.286 165.714v77.714s-0.571 82.857 10.286 165.714c9.143 70.857 40.571 101.714 40.571 101.714 38.857 41.143 82.857 41.143 102.857 43.429 0 0 142.857 10.286 358.286 10.286v0z" />
<glyph unicode="&#xf16b;" glyph-name="dropbox" d="M229.714 473.714l282.286-174.286-195.429-162.857-280 182.286zM793.143 156.571v-61.714l-280-167.429v-0.571l-0.571 0.571-0.571-0.571v0.571l-279.429 167.429v61.714l84-54.857 195.429 162.286v1.143l0.571-0.571 0.571 0.571v-1.143l196-162.286zM316.571 810.285l195.429-162.857-282.286-173.714-193.143 154.286zM794.286 473.714l193.143-154.857-279.429-182.286-196 162.857zM708 810.285l279.429-182.286-193.143-154.286-282.286 173.714z" />
<glyph unicode="&#xf16c;" glyph-name="stack-overflow" horiz-adv-x="878" d="M736.571-54.857h-638.857v274.286h-91.429v-365.714h821.714v365.714h-91.429v-274.286zM198.286 244.571l18.857 89.714 447.429-94.286-18.857-89.143zM257.143 458.285l38.286 83.429 414.286-193.714-38.286-82.857zM372 661.714l58.286 70.286 350.857-293.143-58.286-70.286zM598.857 877.714l272.571-366.286-73.143-54.857-272.571 366.286zM188.571 37.143v90.857h457.143v-90.857h-457.143z" />
<glyph unicode="&#xf16d;" glyph-name="instagram" horiz-adv-x="878" d="M585.143 365.714c0 80.571-65.714 146.286-146.286 146.286s-146.286-65.714-146.286-146.286 65.714-146.286 146.286-146.286 146.286 65.714 146.286 146.286zM664 365.714c0-124.571-100.571-225.143-225.143-225.143s-225.143 100.571-225.143 225.143 100.571 225.143 225.143 225.143 225.143-100.571 225.143-225.143zM725.714 600c0-29.143-23.429-52.571-52.571-52.571s-52.571 23.429-52.571 52.571 23.429 52.571 52.571 52.571 52.571-23.429 52.571-52.571zM438.857 725.714c-64 0-201.143 5.143-258.857-17.714-20-8-34.857-17.714-50.286-33.143s-25.143-30.286-33.143-50.286c-22.857-57.714-17.714-194.857-17.714-258.857s-5.143-201.143 17.714-258.857c8-20 17.714-34.857 33.143-50.286s30.286-25.143 50.286-33.143c57.714-22.857 194.857-17.714 258.857-17.714s201.143-5.143 258.857 17.714c20 8 34.857 17.714 50.286 33.143s25.143 30.286 33.143 50.286c22.857 57.714 17.714 194.857 17.714 258.857s5.143 201.143-17.714 258.857c-8 20-17.714 34.857-33.143 50.286s-30.286 25.143-50.286 33.143c-57.714 22.857-194.857 17.714-258.857 17.714zM877.714 365.714c0-60.571 0.571-120.571-2.857-181.143-3.429-70.286-19.429-132.571-70.857-184s-113.714-67.429-184-70.857c-60.571-3.429-120.571-2.857-181.143-2.857s-120.571-0.571-181.143 2.857c-70.286 3.429-132.571 19.429-184 70.857s-67.429 113.714-70.857 184c-3.429 60.571-2.857 120.571-2.857 181.143s-0.571 120.571 2.857 181.143c3.429 70.286 19.429 132.571 70.857 184s113.714 67.429 184 70.857c60.571 3.429 120.571 2.857 181.143 2.857s120.571 0.571 181.143-2.857c70.286-3.429 132.571-19.429 184-70.857s67.429-113.714 70.857-184c3.429-60.571 2.857-120.571 2.857-181.143z" />
<glyph unicode="&#xf16e;" glyph-name="flickr" horiz-adv-x="878" d="M713.143 804.571c90.857 0 164.571-73.714 164.571-164.571v-548.571c0-90.857-73.714-164.571-164.571-164.571h-548.571c-90.857 0-164.571 73.714-164.571 164.571v548.571c0 90.857 73.714 164.571 164.571 164.571h548.571zM398.857 365.714c0 66.857-54.286 121.143-121.143 121.143s-121.143-54.286-121.143-121.143 54.286-121.143 121.143-121.143 121.143 54.286 121.143 121.143zM721.143 365.714c0 66.857-54.286 121.143-121.143 121.143s-121.143-54.286-121.143-121.143 54.286-121.143 121.143-121.143 121.143 54.286 121.143 121.143z" />
<glyph unicode="&#xf173;" glyph-name="tumblr" horiz-adv-x="624" d="M539.429 118.285l45.714-135.429c-17.143-25.714-94.857-54.857-164.571-56-207.429-3.429-285.714 147.429-285.714 253.714v310.857h-96v122.857c144 52 178.857 182.286 186.857 256.571 0.571 4.571 4.571 6.857 6.857 6.857h139.429v-242.286h190.286v-144h-190.857v-296c0-40 14.857-95.429 91.429-93.714 25.143 0.571 58.857 8 76.571 16.571z" />
<glyph unicode="&#xf17d;" glyph-name="dribbble" horiz-adv-x="878" d="M585.143 20.571c-5.714 33.143-27.429 147.429-80 284.571-0.571 0-1.714-0.571-2.286-0.571 0 0-222.286-77.714-294.286-234.286-3.429 2.857-8.571 6.286-8.571 6.286 65.143-53.143 148-85.714 238.857-85.714 52 0 101.143 10.857 146.286 29.714zM479.429 367.428c-9.143 21.143-19.429 42.286-30.286 63.429-193.143-57.714-378.286-53.143-384.571-53.143-0.571-4-0.571-8-0.571-12 0-96 36.571-184 96-250.286v0c102.286 182.286 304.571 247.429 304.571 247.429 5.143 1.714 10.286 2.857 14.857 4.571zM418.286 488.571c-65.143 115.429-134.286 209.143-139.429 216-104.571-49.143-182.286-145.714-206.857-261.714 9.714 0 166.286-1.714 346.286 45.714zM809.143 306.285c-8 2.286-112.571 35.429-233.714 16.571 49.143-135.429 69.143-245.714 73.143-268 84 56.571 143.429 146.857 160.571 251.429zM349.143 729.714c-0.571 0-0.571 0-1.143-0.571 0 0 0.571 0.571 1.143 0.571zM686.286 646.857c-65.714 58.286-152.571 93.714-247.429 93.714-30.286 0-60-4-88.571-10.857 5.714-7.429 76.571-100.571 140.571-218.286 141.143 52.571 194.286 133.714 195.429 135.429zM813.714 369.714c-1.143 88.571-32.571 170.286-85.143 234.286-1.143-1.143-61.143-88-209.143-148.571 8.571-17.714 17.143-36 25.143-54.286 2.857-6.286 5.143-13.143 8-19.429 129.143 16.571 256.571-11.429 261.143-12zM877.714 365.714c0-242.286-196.571-438.857-438.857-438.857s-438.857 196.571-438.857 438.857 196.571 438.857 438.857 438.857 438.857-196.571 438.857-438.857z" />
<glyph unicode="&#xf180;" glyph-name="foursquare" horiz-adv-x="742" d="M571.429 629.714l21.143 110.857c4 18.286-9.714 32.571-25.143 32.571h-406.857c-18.286 0-30.857-16.571-30.857-30.857v-629.143c0-1.714 1.714-2.286 3.429-0.571 149.714 180 166.286 201.143 166.286 201.143 17.143 20 24 23.429 49.143 23.429h136.571c18.857 0 29.714 16 31.429 25.143s17.714 92.571 21.143 109.143-12 33.714-27.429 33.714h-168c-22.286 0-38.286 16-38.286 38.286v24c0 22.286 16 37.714 38.286 37.714h197.714c13.714 0 29.143 12.571 31.429 24.571zM701.143 756.571c-21.143-102.857-84.571-428-90.286-451.429-6.857-26.857-17.143-73.714-82.286-73.714h-154.857c-6.286 0-6.857 0.571-12.571-5.714 0 0-4-4.571-243.429-282.286-18.857-21.714-49.714-17.714-61.143-13.143s-31.429 18.286-31.429 56v805.714c0 33.143 20.571 85.714 90.286 85.714h507.429c74.286 0 94.286-42.286 78.286-121.143zM701.143 756.571l-90.286-451.429c5.714 23.429 69.143 348.571 90.286 451.429z" />
<glyph unicode="&#xf1a6;" glyph-name="digg" horiz-adv-x="1170" d="M187.429 716.571h116.571v-561.714h-304v398.286h187.429v163.429zM187.429 248.571v210.857h-70.286v-210.857h70.286zM350.857 553.143v-398.286h117.143v398.286h-117.143zM350.857 716.571v-116.571h117.143v116.571h-117.143zM514.857 553.143h304.571v-538.286h-304.571v93.143h187.429v46.857h-187.429v398.286zM702.286 248.571v210.857h-70.286v-210.857h70.286zM866.286 553.143h304v-538.286h-304v93.143h186.857v46.857h-186.857v398.286zM1053.143 248.571v210.857h-70.286v-210.857h70.286z" />
<glyph unicode="&#xf1b4;" glyph-name="behance" horiz-adv-x="1170" d="M1056 684h-292v-70.857h292v70.857zM912 440.571c-68.571 0-114.286-42.857-118.857-111.429h233.143c-6.286 69.143-42.286 111.429-114.286 111.429zM921.143 106.285c43.429 0 99.429 23.429 113.143 68h126.286c-38.857-119.429-119.429-175.429-244-175.429-164.571 0-266.857 111.429-266.857 273.714 0 156.571 108 276 266.857 276 163.429 0 253.714-128.571 253.714-282.857 0-9.143-0.571-18.286-1.143-26.857h-376c0-83.429 44-132.571 128-132.571zM158.286 134.857h169.143c64.571 0 117.143 22.857 117.143 95.429 0 73.714-44 102.857-113.714 102.857h-172.571v-198.286zM158.286 441.714h160.571c56.571 0 96.571 24.571 96.571 85.714 0 66.286-51.429 82.286-108.571 82.286h-148.571v-168zM0 732.571h339.429c123.429 0 230.286-34.857 230.286-178.286 0-72.571-33.714-119.429-98.286-150.286 88.571-25.143 131.429-92 131.429-182.286 0-146.286-122.857-209.143-253.714-209.143h-349.143v720z" />
<glyph unicode="&#xf1bc;" glyph-name="spotify" horiz-adv-x="878" d="M644 186.285c0 16-6.286 22.286-17.143 29.143-73.714 44-159.429 65.714-255.429 65.714-56 0-109.714-7.429-164-19.429-13.143-2.857-24-11.429-24-29.714 0-14.286 10.857-28 28-28 5.143 0 14.286 2.857 21.143 4.571 44.571 9.143 91.429 15.429 138.857 15.429 84 0 163.429-20.571 226.857-58.857 6.857-4 11.429-6.286 18.857-6.286 14.286 0 26.857 11.429 26.857 27.429zM698.857 309.143c0 15.429-5.714 26.286-20 34.857-87.429 52-198.286 80.571-313.143 80.571-73.714 0-124-10.286-173.143-24-18.286-5.143-27.429-17.714-27.429-36.571s15.429-34.286 34.286-34.286c8 0 12.571 2.286 21.143 4.571 40 10.857 88 18.857 143.429 18.857 108.571 0 207.429-28.571 278.857-70.857 6.286-3.429 12.571-7.429 21.714-7.429 19.429 0 34.286 15.429 34.286 34.286zM760.571 450.857c0 21.143-9.143 32-22.857 40-98.857 57.714-234.286 84.571-363.429 84.571-76 0-145.714-8.571-208-26.857-16-4.571-30.857-18.286-30.857-42.286 0-23.429 17.714-41.714 41.143-41.714 8.571 0 16.571 2.857 22.857 4.571 55.429 15.429 115.429 21.143 175.429 21.143 118.857 0 242.286-26.286 321.714-73.714 8-4.571 13.714-6.857 22.857-6.857 21.714 0 41.143 17.143 41.143 41.143zM877.714 365.714c0-242.286-196.571-438.857-438.857-438.857s-438.857 196.571-438.857 438.857 196.571 438.857 438.857 438.857 438.857-196.571 438.857-438.857z" />
<glyph unicode="&#xf1bd;" glyph-name="deviantart" horiz-adv-x="585" d="M585.143 704.571l-173.143-332.571 13.714-17.714h159.429v-237.143h-289.714l-25.143-17.143-81.143-156c-0.571 0-16-16-17.143-17.143h-172v173.143l173.143 333.143-13.714 17.143h-159.429v237.143h289.714l25.143 17.143 81.143 156c0.571 0 16 16 17.143 17.143h172v-173.143z" />
<glyph unicode="&#xf1be;" glyph-name="soundcloud" horiz-adv-x="1317" d="M448 93.714l9.143 137.714-9.143 298.857c-0.571 7.429-6.286 13.714-13.714 13.714-6.857 0-13.143-6.286-13.143-13.714l-8-298.857 8-137.714c0.571-7.429 6.286-13.143 13.143-13.143 7.429 0 13.143 5.714 13.714 13.143zM617.143 110.285l6.286 120.571-6.857 334.857c0 5.714-2.857 10.857-7.429 13.714-2.857 1.714-5.714 2.857-9.143 2.857s-6.286-1.143-9.143-2.857c-4.571-2.857-7.429-8-7.429-13.714l-0.571-3.429-5.714-330.857s0-0.571 6.286-134.857v-0.571c0-3.429 1.143-6.857 3.429-9.714 3.429-4 8-6.286 13.143-6.286 4.571 0 8.571 2.286 11.429 5.143 3.429 2.857 5.143 6.857 5.143 11.429zM20 304.571l11.429-73.143-11.429-72c-0.571-2.857-2.286-5.143-5.143-5.143s-4.571 2.286-5.143 5.143l-9.714 72 9.714 73.143c0.571 2.857 2.286 5.143 5.143 5.143s4.571-2.286 5.143-5.143zM69.143 349.714l14.857-118.286-14.857-116c-0.571-2.857-2.857-5.143-5.714-5.143s-5.143 2.286-5.143 5.714l-13.143 115.429 13.143 118.286c0 2.857 2.286 5.143 5.143 5.143s5.143-2.286 5.714-5.143zM229.143 90.857v0 0zM121.714 371.428l14.286-140-14.286-135.429c0-3.429-2.857-6.286-6.286-6.286s-6.286 2.857-6.857 6.286l-12 135.429 12 140c0.571 4 3.429 6.857 6.857 6.857s6.286-2.857 6.286-6.857zM175.429 375.428l13.143-144-13.143-139.429c-0.571-4.571-4-7.429-8-7.429s-7.429 2.857-7.429 7.429l-12 139.429 12 144c0 4.571 3.429 7.429 7.429 7.429s7.429-2.857 8-7.429zM229.143 365.143l12-133.714-12-140.571c-0.571-5.143-4.571-9.143-9.143-9.143s-8.571 4-8.571 9.143l-11.429 140.571 11.429 133.714c0 4.571 4 8.571 8.571 8.571s8.571-4 9.143-8.571zM448 93.714v0 0zM282.857 448.571l12-217.143-12-140.571c0-5.714-4.571-10.286-9.714-10.286-5.714 0-9.714 4.571-10.286 10.286l-10.286 140.571 10.286 217.143c0.571 5.714 4.571 10.286 10.286 10.286 5.143 0 9.714-4.571 9.714-10.286zM336.571 497.714l10.857-267.429-10.857-139.429c0-6.286-5.143-10.857-10.857-10.857-6.286 0-10.857 4.571-11.429 10.857l-9.143 139.429 9.143 267.429c0.571 6.286 5.143 10.857 11.429 10.857 5.714 0 10.857-4.571 10.857-10.857zM392.571 520.571l10.286-289.143-10.286-138.286c-0.571-6.857-5.714-12-12.571-12-6.286 0-11.429 5.143-12 12l-9.143 138.286 9.143 289.143c0 6.857 5.714 12.571 12 12.571 6.857 0 12-5.714 12.571-12.571zM616.571 96.571v0 0 0 0 0 0zM503.429 522.857l8.571-291.429-8.571-136.571c0-8-6.286-14.286-14.286-14.286s-13.714 6.286-14.286 14.286l-8 136.571 8 291.429c0 8 6.286 14.286 14.286 14.286s14.286-6.286 14.286-14.286zM560 512l8-281.143-8-134.857c0-8.571-6.857-15.429-15.429-15.429s-15.429 6.857-16 15.429l-6.857 134.857 6.857 281.143c0.571 9.143 7.429 16 16 16s14.857-6.857 15.429-16zM681.143 230.857l-8-132c0-9.714-8-17.714-17.714-17.714s-17.714 8-18.286 17.714l-3.429 65.143-3.429 66.857 6.857 363.429v1.714c0.571 5.143 2.857 10.286 6.857 13.714 2.857 2.286 6.857 4 11.429 4 2.857 0 6.286-1.143 8.571-2.857 5.143-2.857 8.571-8.571 9.143-14.857zM1316.571 241.714c0-89.143-72.571-161.143-161.714-161.143h-449.143c-9.714 1.143-17.714 8.571-17.714 18.857v513.714c0 9.714 3.429 14.286 16 18.857 31.429 12.571 66.857 19.429 103.429 19.429 149.143 0 271.429-114.286 284.571-260 19.429 8 40.571 12.571 62.857 12.571 89.143 0 161.714-72.571 161.714-162.286z" />
<glyph unicode="&#xf1ca;" glyph-name="vine" horiz-adv-x="878" d="M855.429 405.143v-113.143c-40-9.143-80-13.143-113.143-13.143-80-168-223.429-312-271.429-338.857-30.286-17.143-58.857-18.286-92.571 1.714-58.857 35.429-281.714 218.286-356 793.143h161.714c40.571-345.143 140-522.286 249.143-654.857 60.571 60.571 118.857 141.143 164 232-108 54.857-173.714 175.429-173.714 316 0 142.286 81.714 249.714 221.714 249.714 136 0 210.286-84.571 210.286-230.286 0-54.286-11.429-116-33.143-163.429 0 0-100.571-20-137.714 44.571 7.429 24.571 17.714 66.857 17.714 105.143 0 68-24.571 101.143-61.714 101.143-39.429 0-66.857-37.143-66.857-108.571 0-145.714 92.571-229.143 212.571-229.143 21.143 0 45.143 2.286 69.143 8z" />
<glyph unicode="&#xf1cb;" glyph-name="codepen" d="M123.429 209.714l344.571-229.714v205.143l-190.857 127.429zM88 292l110.286 73.714-110.286 73.714v-147.429zM556-20l344.571 229.714-153.714 102.857-190.857-127.429v-205.143zM512 261.714l155.429 104-155.429 104-155.429-104zM277.143 418.857l190.857 127.429v205.143l-344.571-229.714zM825.714 365.714l110.286-73.714v147.429zM746.857 418.857l153.714 102.857-344.571 229.714v-205.143zM1024 521.714v-312c0-14.286-7.429-28.571-19.429-36.571l-468-312c-7.429-4.571-16-7.429-24.571-7.429s-17.143 2.857-24.571 7.429l-468 312c-12 8-19.429 22.286-19.429 36.571v312c0 14.286 7.429 28.571 19.429 36.571l468 312c7.429 4.571 16 7.429 24.571 7.429s17.143-2.857 24.571-7.429l468-312c12-8 19.429-22.286 19.429-36.571z" />
<glyph unicode="&#xf23a;" glyph-name="medium" d="M341.143 637.143v-670.286c0-17.714-8.571-34.286-28-34.286-6.857 0-13.143 1.714-18.857 4.571l-265.714 133.143c-16 8-28.571 28.571-28.571 45.714v651.429c0 14.286 6.857 27.429 22.286 27.429 9.143 0 17.143-4.571 25.143-8.571l292-146.286c0.571-0.571 1.714-2.286 1.714-2.857zM377.714 579.428l305.143-494.857-305.143 152v342.857zM1024 569.143v-602.286c0-18.857-10.857-32-29.714-32-9.714 0-18.857 2.857-26.857 7.429l-252 125.714zM1022.286 637.714c0-2.286-295.429-481.714-318.286-518.286l-222.857 362.286 185.143 301.143c6.286 10.286 17.714 16 29.714 16 5.143 0 10.286-1.143 14.857-3.429l309.143-154.286c1.143-0.571 2.286-1.714 2.286-3.429z" />
<glyph unicode="&#xf26e;" glyph-name="500px" horiz-adv-x="815" d="M800.571-6.286l-3.429-3.429c-42.857-42.857-92.571-76.571-148-100-57.714-24-118.286-36.571-181.143-36.571s-124 12.571-181.143 36.571c-55.429 23.429-105.714 57.143-148 100-42.857 42.286-76.571 92-100 147.429-14.286 34.857-25.714 70.857-30.857 108v0c-2.286 16 20 19.429 27.429 20.571 17.714 2.857 29.714 1.714 32-11.429 0.571-0.571 0.571-1.143 0.571-2.286 2.286-11.429 8-45.714 26.286-90.857 18.857-46.857 48-90.286 86.857-129.143 37.143-37.143 80.571-66.286 129.143-86.857 49.714-21.143 102.857-32 157.714-32 54.286 0 107.429 10.857 157.714 32 48 20.571 91.429 49.714 128.571 86.857l3.429 3.429c4 4 8.571 5.143 14.286 3.429 5.143-1.143 11.429-5.714 18.857-12.571v0c18.286-18.857 14.286-28 9.714-33.143zM530.857 345.143l-37.714-37.714 36-36c4-4 11.429-12.571-4-28-6.286-6.286-12.571-9.714-18.286-9.714-4 0-7.429 1.714-10.857 5.714l-35.429 34.857-37.714-37.714c-1.143-1.143-4-2.857-8.571-2.857-5.143 0-11.429 2.857-17.714 9.143l-1.143 1.143c-4 3.429-10.286 9.714-10.286 16.571 0 3.429 1.714 6.286 4.571 9.714l37.714 37.143-37.714 37.714c-6.286 6.286-3.429 14.286 8 25.714 6.857 6.857 12.571 10.286 17.714 10.286 2.857 0 5.143-1.143 7.429-2.857l37.143-37.714 37.143 37.143c6.286 6.286 16.571 3.429 27.429-7.429 6.857-6.857 14.286-16.571 6.286-25.143zM800 312.571c0-45.143-9.143-89.143-26.286-130.286-17.143-40-41.143-75.429-72-106.286s-66.857-54.857-106.857-72c-41.143-17.714-85.143-26.286-130.286-26.286s-89.143 8.571-130.286 26.286c-40 17.143-76 41.143-106.857 72s-54.857 66.286-71.429 106.286c-3.429 7.429-8.571 21.714-8.571 22.857h-0.571c-5.143 16 17.714 22.857 24.571 25.143 16.571 5.143 29.143 7.429 34.286-6.857 13.714-36.571 34.857-72 55.429-95.429h0.571v194.857c1.143 48 21.143 96.571 58.286 132.571 38.286 37.714 89.714 58.857 144.571 58.857 112 0 202.857-90.286 202.857-201.143 0-112-91.429-202.857-202.857-202.857-22.286 0-38.857 1.714-64 9.143-2.857 1.143-16 6.857-7.429 34.857 2.286 7.429 9.143 29.143 25.143 24.571 1.143 0 29.143-6.857 44-6.857 79.429 0 141.714 61.714 141.714 140.571 0 37.143-14.857 72-41.143 97.714-26.286 26.286-61.714 40.571-100 40.571-39.429 0-75.429-16-101.714-45.714-22.857-25.714-36.571-60-36.571-91.429v-236c41.143-25.143 88.571-38.286 138.286-38.286 73.143 0 144 29.143 194.857 80 51.429 51.429 80 120.571 80 193.143 0 73.143-28.571 141.714-80.571 193.714-51.429 51.429-120 80-193.714 80s-142.857-28.571-194.286-80c-0.571-0.571-33.143-34.286-44-49.714l-1.143-1.143c-6.857-9.714-13.143-18.857-41.714-12.571-14.286 3.429-29.714 12-29.714 24.571v388.571c0 10.286 8 21.714 21.714 21.714h501.143c17.143 0 17.143-24 17.143-31.429 0-8 0-31.429-17.143-31.429h-463.429v-276h0.571c32 33.714 87.429 69.143 120 82.857 40.571 17.143 86.286 26.286 132 26.286 45.143 0 89.143-8.571 130.286-26.286 40-17.143 76-41.143 106.857-72s54.857-66.286 72-106.286c17.143-41.714 26.286-85.143 26.286-130.857zM782.286 644.571c10.857-9.714 3.429-20-7.429-32.571-6.857-6.857-14.286-14.857-22.286-14.857-3.429 0-6.286 1.143-9.143 4-41.143 35.429-78.286 59.429-118.286 76-49.714 21.714-102.857 32-157.714 32-48.571 0-101.714-9.714-149.714-28-14.857-5.714-22.857 13.714-25.714 21.143-3.429 9.143-5.143 16.571-4.571 21.714 1.143 5.714 4 9.714 9.143 11.429 46.857 20.571 110.857 32.571 170.857 32.571 62.286 0 123.429-12.571 180.571-36.571 52.571-22.286 95.429-49.714 134.286-86.857z" />
<glyph unicode="&#xf27d;" glyph-name="vimeo" horiz-adv-x="1029" d="M976.571 581.714c-4-90.286-67.429-214.286-189.714-372-126.857-164-233.143-246.286-321.143-246.286-54.286 0-100 50.286-137.143 150.286-25.143 91.429-50.286 183.429-75.429 275.429-27.429 100-57.714 149.714-89.714 149.714-6.857 0-30.857-14.286-72.571-43.429l-44 56c45.714 40.571 90.857 81.714 136 121.143 60.571 53.714 106.857 80.571 137.714 83.429 72.571 6.857 116.571-42.286 133.714-148 17.714-114.286 30.857-185.714 37.714-213.143 21.143-94.857 43.429-142.286 68.571-142.286 19.429 0 48.571 30.286 88 92 38.857 61.714 59.429 108.571 62.286 140.571 5.143 53.143-15.429 79.429-62.286 79.429-22.286 0-45.143-5.143-69.143-14.857 45.714 149.714 133.143 222.286 262.286 218.286 95.429-2.857 140.571-65.143 134.857-186.286z" />
<glyph unicode="&#xf281;" glyph-name="reddit-alien" d="M1024 394.285c0-44.571-25.143-82.857-62.286-101.714 4.571-17.714 6.857-36 6.857-54.857 0-180.571-204-326.857-455.429-326.857-250.857 0-454.857 146.286-454.857 326.857 0 18.286 2.286 36.571 6.286 53.714-38.286 18.857-64.571 57.714-64.571 102.857 0 62.857 50.857 113.714 113.714 113.714 32.571 0 61.714-13.714 82.857-36 77.143 53.714 180 88.571 294.286 92.571l66.286 297.714c2.286 10.286 13.143 17.143 23.429 14.857l210.857-46.286c13.714 27.429 42.857 46.857 76 46.857 47.429 0 85.714-38.286 85.714-85.143 0-47.429-38.286-85.714-85.714-85.714-46.857 0-85.143 38.286-85.143 85.143l-190.857 42.286-59.429-269.714c114.857-3.429 218.857-37.714 296.571-91.429 20.571 21.714 49.714 34.857 81.714 34.857 62.857 0 113.714-50.857 113.714-113.714zM238.857 280.571c0-47.429 38.286-85.714 85.143-85.714 47.429 0 85.714 38.286 85.714 85.714 0 46.857-38.286 85.143-85.714 85.143-46.857 0-85.143-38.286-85.143-85.143zM701.714 77.714c8.571 8.571 8.571 21.143 0 29.714-8 8-21.143 8-29.143 0-34.286-34.857-108-46.857-160.571-46.857s-126.286 12-160.571 46.857c-8 8-21.143 8-29.143 0-8.571-8-8.571-21.143 0-29.714 54.286-54.286 158.857-58.286 189.714-58.286s135.429 4 189.714 58.286zM700 194.857c46.857 0 85.143 38.286 85.143 85.714 0 46.857-38.286 85.143-85.143 85.143-47.429 0-85.714-38.286-85.714-85.143 0-47.429 38.286-85.714 85.714-85.714z" />
<glyph unicode="&#xf289;" glyph-name="mixcloud" horiz-adv-x="1317" d="M940 250.285c0 45.714-29.143 84.571-69.143 100-2.857-17.714-7.429-35.429-13.143-52.571-5.714-18.286-22.857-29.714-41.143-29.714-4.571 0-9.143 0.571-13.714 1.714-23.429 8-35.429 32.571-28 55.429 8.571 26.286 13.143 53.714 13.143 81.714 0 142.857-116.571 259.429-260 259.429-102.857 0-195.429-61.143-236.571-152.571 40-10.286 77.143-30.857 107.429-60.571 17.143-17.143 17.143-45.143 0-62.286s-45.143-17.143-62.286 0c-27.429 27.429-64 42.857-102.857 42.857-80.571 0-146.286-65.143-146.286-145.714s65.714-145.714 146.286-145.714h597.714c60 0 108.571 48.571 108.571 108zM1027.429 250.285c0-108-88-195.429-196-195.429h-597.714c-129.143 0-233.714 104.571-233.714 233.143 0 117.143 86.857 213.714 199.429 230.286 47.429 139.429 179.429 235.429 328.571 235.429 180 0 328.571-137.714 345.714-313.143 87.429-18.857 153.714-97.143 153.714-190.286zM1170.286 250.285c0-65.143-18.857-128-55.429-182.286-8.571-12.571-22.286-18.857-36.571-18.857v0c-8.571 0-17.143 2.286-24.571 7.429-20 13.143-25.143 40.571-11.429 60.571 26.857 39.429 40.571 85.143 40.571 133.143 0 47.429-13.714 93.714-40.571 133.143-13.714 20-8.571 46.857 11.429 60.571s47.429 8 61.143-12c36.571-53.714 55.429-116.571 55.429-181.714zM1316.571 250.285c0-90.857-26.286-178.286-76.571-253.143-8.571-12.571-22.286-19.429-36.571-19.429v0c-8 0-16.571 2.286-24 7.429-20 13.714-25.714 40.571-12 60.571 40 60.571 61.714 131.429 61.714 204.571s-21.714 144-61.714 204c-13.714 20-8 47.429 12 60.571 20 13.714 46.857 8.571 60.571-12 50.286-74.286 76.571-161.714 76.571-252.571z" />
<glyph unicode="&#xf2d7;" glyph-name="etsy" horiz-adv-x="878" d="M316.408 714.94v-320.818c113.633-0.979 173.388 4.898 173.388 4.898 46.040 1.47 52.898 13.225 63.674 58.286l16.163 69.551h50.449l-6.858-157.715 3.428-156.246h-50.449l-14.203 62.204c-10.286 46.531-30.367 57.797-63.184 58.286 0 0-42.123 3.918-172.409 3.918v-272.328c0-50.939 27.919-74.939 86.695-74.939h174.858c58.775 0 111.674 5.877 147.919 89.633l45.551 105.797h43.591c-3.428-21.061-26.939-215.511-30.367-258.613-161.144 5.877-230.205 5.877-230.205 5.877h-307.593l-184.164-5.877v49.96l62.204 12.246c43.591 8.326 56.816 21.061 57.307 56.816 2.939 118.532 3.918 314.941 3.918 314.941s1.47 196.898-3.918 315.919c-1.47 40.653-13.714 50.449-57.307 58.775l-62.204 11.754v49.96l184.164-5.877h343.838s68.083 0 183.184 13.225c-6.858-74.939-15.184-247.838-15.184-247.838h-45.551l-15.674 60.735c-19.102 75.919-44.572 116.572-91.592 116.572h-268.409c-20.083 0-21.061-6.858-21.061-19.102z" />
</font>
</defs>
</svg>
